[Ubuntu-QC] Problème de conversion fichiers ogv en d'autres formats

linuxbbas linuxbbas at gmail.com
Mer 27 Oct 11:40:19 BST 2010


Salut,

"As-tu essayé le Xvidcap?" Je l'ai essayé avec le paramètre codec DV mais ça
plante à tout coup. Il me donne ce message d'erreur :

(xvidcap:2154): Gtk-WARNING **: GtkSpinButton: setting an adjustment with
non-zero page size is deprecated
[dv @ 0x8704600]Can't initialize DV format!
Make sure that you supply exactly two streams:
     video: 25fps or 29.97fps, audio: 2ch/48kHz/PCM
     (50Mbps allows an optional second audio stream)
Output #0, dv, to 'file:///home/jean/test-0000.mpeg':
    Stream #0.0: Video: dvvideo (hq), yuv420p, 192x144, q=3-3, 64 kb/s, 90k
tbn, 25 tbc
    Stream #0.1: Audio: mp2, 44100 Hz, stereo, s16, 64 kb/s
xtoffmpeg.c xvc_ffmpeg_save_frame(): Could not write header for output file
(incorrect codec paramters ?) ... aborting

J'ai fait quelques bidouillages dans ce sens mais sans succès
Par contre j'ai progressé du côté de ffmpeg en faisant quelques recherches
sur le net, en utilisant le vcodec huffyuv et en diminuant la définition de
l'écran à 1024x 768 je réussis à obtenir 22 images à la seconde  Par la
suite je convertis le fichier en DV avec EKD sans perte de qualité

La commande que j'utilise en terminal est celle-ci : ffmpeg -f x11grab -r 25
-s 1024x768 -i :0.0 -vcodec huffyuv -threads 2 -sameq Lossless-HuffYUV.avi

Voilà, lorsque je découvre autre chose je vous transmet l'information

Merci de votre aide et bonne journée !

Jean

-- 
View this message in context: http://ubuntu-qc.124361.n3.nabble.com/Re-Probleme-de-conversion-fichiers-ogv-en-d-autres-formats-tp1771210p1779353.html
Sent from the Ubuntu-Qc mailing list archive at Nabble.com.



Plus d'informations sur la liste de diffusion Ubuntu-quebec