[ubuntu-it] possibile riprodurre filmati flash (.flv) con totem?

Massimo Z. maxzix74 a libero.it
Ven 9 Mar 2007 18:20:44 GMT


supernova ha scritto:
> io li riproduco con vlc e con kaffeine xine, ma questi ultimi due non
> danno l'audio.
> ffmpeg -i video.flv video.avi
> ed eccoti un file avi!!!
>
>   
A me invece mplayer (du Dapper) non riproduce il video, mentre sento
l'audio.
con ffmpeg non riesco a ottenere il file *.avi.
Questa  la risposta:



[flv @ 0x82c8a80]Unsupported video codec (4)
[flv @ 0x82c8a80]Unsupported video codec (4)
[flv @ 0x82c8a80]Unsupported video codec (4)

Seems that stream 1 comes from film source: 1000.00 (1000/1) -> 30.00 (30/1)
Input #0, flv, from 'Rache.flv':
Duration: 00:37:54.4, bitrate: N/A
Stream #0.0: Audio: mp3, 44100 Hz, stereo
Stream #0.1: Video: 0x0004
Output #0, avi, to 'Rache.avi':
Stream #0.0: Video: mpeg4, yuv420p, q=2-31, 200 kb/s
Stream #0.1: Audio: mp2, 44100 Hz, stereo, 64 kb/s
Stream mapping:
Stream #0.1 -> #0.0
Stream #0.0 -> #0.1
Unsupported codec (id=0) for input stream #0.1

Mi manca qualche pacchetto?
Ciao, m4x

-- 
пролетарии всех стран, объединяйтесь





Maggiori informazioni sulla lista ubuntu-it