winFF

alain bellec bellec.alain at neuf.fr
Mar 2 Fév 11:58:02 UTC 2010


bonjour la liste,

sachez que j'apprécie beaucoup votre soutien meme si parfois je suis
chiant . faut pas m'en vouloir ; il n'y a aucune malice de ma part .
là , vous voyez , tout va bien mais j'aimerai , afin de le comprendre ,
que vous me commentiez et m'expliquiez ce petit rapport de winff :
si vous voulez bien , bien sur ...
(en particulier les lignes où figure "warning")

merci 

Input #0, mov,mp4,m4a,3gp,3g2,mj2, from '/home/alain/Bureau/michael
jackson/Michael Jackson - Thriller.mp4':
  Duration: 00:13:42.31, start: 0.000000, bitrate: 663 kb/s
    Stream #0.0(und): Audio: aac, 44100 Hz, stereo, s16
    Stream #0.1(und): Video: h264, yuv420p, 480x360, 29.97 tbr, 29.97
tbn, 59.94 tbc
Output #0, avi, to '/home/alain/Bureau/michael jackson/AVI/Michael
Jackson - Thriller.avi':
    Stream #0.0(und): Video: msmpeg4, yuv420p, 640x480, q=2-31, 1000
kb/s, 90k tbn, 29.97 tbc
    Stream #0.1(und): Audio: libmp3lame, 44100 Hz, stereo, s16, 192 kb/s
Stream mapping:
  Stream #0.1 -> #0.0
  Stream #0.0 -> #0.1
Press [q] to stop encoding
[msmpeg4 @ 0x89d5b50]warning, clipping 1 dct coefficients to
-127..127ts/s    
    Last message repeated 11 times 5785kB time=44.88
bitrate=1056.0kbits/s    
[msmpeg4 @ 0x89d5b50]warning, clipping 2 dct coefficients to -127..127
    Last message repeated 1 times
[msmpeg4 @ 0x89d5b50]warning, clipping 1 dct coefficients to -127..127
    Last message repeated 5 times  6212kB time=46.68
bitrate=1090.1kbits/s    
[msmpeg4 @ 0x89d5b50]warning, clipping 2 dct coefficients to -127..127
[msmpeg4 @ 0x89d5b50]warning, clipping 1 dct coefficients to
-127..127ts/s    
frame=24643 fps= 59 q=2.0 Lsize=  121005kB time=822.31
bitrate=1205.5kbits/s    
video:100366kB audio:19273kB global headers:0kB muxing overhead
1.141735%
FFmpeg version SVN-r19352-4:0.5+svn20090706-2ubuntu2, Copyright (c)
2000-2009 Fabrice Bellard, et al.
  configuration: --extra-version=4:0.5+svn20090706-2ubuntu2
--prefix=/usr --enable-avfilter --enable-avfilter-lavf --enable-vdpau
--enable-bzlib --enable-libgsm --enable-libschroedinger
--enable-libspeex --enable-libtheora --enable-libvorbis
--enable-pthreads --enable-zlib --disable-stripping --disable-vhook
--enable-gpl --enable-postproc --enable-swscale --enable-x11grab
--enable-libdc1394 --extra-cflags=-I/build/buildd/ffmpeg-0.5
+svn20090706/debian/include --enable-shared --disable-static
  libavutil     49.15. 0 / 49.15. 0
  libavcodec    52.20. 0 / 52.20. 0
  libavformat   52.31. 0 / 52.31. 0
  libavdevice   52. 1. 0 / 52. 1. 0
  libavfilter    0. 4. 0 /  0. 4. 0
  libswscale     0. 7. 1 /  0. 7. 1
  libpostproc   51. 2. 0 / 51. 2. 0
  built on Oct 13 2009 22:15:16, gcc: 4.4.1

Seems stream 1 codec frame rate differs from container frame rate: 49.97
(49974/1000) -> 25.00 (25/1)






Plus d'informations sur la liste de diffusion ubuntu-fr