ASF/WMV konvertieren nach Standard-DVD Format

Simon Jolle "sjolle" urandomdev at gmail.com
Mit Sep 19 13:01:41 BST 2007


Hallo Liste

Ich habe hier diverse Windows Media Files (ohne DRM), welche sich mit 
den gängigen Playern unter Ubuntu abspielen lassen.

Nun möchte ich diese zu einer DVD verbauen. Ich nutze das CLI-Frontend 
tovid. Ich bekomme allerdings immmer ein "unsupported Format". Gibt es 
irgend einen Weg diese nach MPEG-2 zu transcodieren?

$ ffmpeg -i Video01.wmv -target pal-dvd /tmp/dvd.mpg
FFmpeg version SVN-rUNKNOWN, Copyright (c) 2000-2004 Fabrice Bellard
   configuration:  --enable-gpl --enable-pp --enable-pthreads 
--enable-vorbis --enable-libogg --enable-a52 --enable-dts 
--enable-libgsm --enable-dc1394 --disable-debug --enable-shared 
--prefix=/usr
   libavutil version: 0d.49.0.0
   libavcodec version: 0d.51.11.0
   libavformat version: 0d.50.5.0
   built on Jan 28 2007 22:48:38, gcc: 4.1.2 20070106 (prerelease) 
(Ubuntu 4.1.1-21ubuntu7)
[wmv3 @ 0xb7ddb508]Header: 47F10801
[wmv3 @ 0xb7ddb508]Extra data: 8 bits left, value: 0

Seems that stream 1 comes from film source: 1000.00 (1000/1) -> 15.00 (15/1)
Input #0, asf, from 'Video01.wmv':
   Duration: 01:21:59.1, start: 5.000000, bitrate: 94 kb/s
   Stream #0.0: Audio: 0x000a, 22050 Hz, mono, 20 kb/s
   Stream #0.1: Video: wmv3, yuv420p, 800x600, 15.00 fps(r)
Output #0, dvd, to '/tmp/dvd.mpg':
   Stream #0.0: Video: mpeg2video, yuv420p, 720x576, q=2-31, 6000 kb/s, 
25.00 fps(c)
   Stream #0.1: Audio: ac3, 48000 Hz, mono, 448 kb/s
Stream mapping:
   Stream #0.1 -> #0.0
   Stream #0.0 -> #0.1
Unsupported codec (id=0) for input stream #0.0

beste Grüsse
Simon