[Bug 115133] k3b fails to process cue sheet

Smeagal smeagal at hotpop.com
Wed May 16 23:14:41 UTC 2007


Public bug reported:

Binary package hint: k3b

I am using Kubuntu 7.04, tried to burn the following cue/bin:

FILE "name_of_the.bin" BINARY
  TRACK 01 MODE1/2352
    INDEX 01 00:00:00
  TRACK 02 AUDIO
    PREGAP 00:02:00
    INDEX 01 48:01:19
  TRACK 03 AUDIO
    INDEX 01 51:34:08
  TRACK 04 AUDIO
    INDEX 01 53:53:60
  TRACK 05 AUDIO
    INDEX 01 56:27:69
  TRACK 06 AUDIO
    INDEX 01 59:21:30
  TRACK 07 AUDIO
    INDEX 01 61:58:22
  TRACK 08 AUDIO
    INDEX 01 65:35:34
  TRACK 09 AUDIO
    INDEX 01 68:41:50
  TRACK 10 AUDIO
    INDEX 01 71:19:43
  TRACK 11 AUDIO
    INDEX 01 73:21:47

(k3b messages translated, since i am using the german version of kubuntu)
with "name_of_the.bin" in the same directory and the correct name.
If i try to open this cue-sheet with right-click -> open with k3b -> k3b : "cant open file"
If i try to burn image in k3b (open cue file) -> k3b: "doesnot seem to be a valid image"
Well, the cue-sheet is ok, i ended up burning the cd using the very same cue-sheet via:
cdrdao write --device ATA:0,0,0 --eject --speed 16 --driver generic-mmc my.cue

** Affects: k3b (Ubuntu)
     Importance: Undecided
         Status: Unconfirmed

-- 
k3b fails to process cue sheet
https://bugs.launchpad.net/bugs/115133
You received this bug notification because you are a member of Kubuntu
Team, which is a bug contact for k3b in ubuntu.




More information about the kubuntu-bugs mailing list